<?xml version="1.0" standalone="no"?> <!DOCTYPE svg PUBLIC "-//W3C//DTD SVG 1.0//EN" "http://www.w3.org/TR/2001/REC-SVG-20010904/DTD/svg10.dtd" > <svg xmlns="http://www.w3.org/2000/svg" width="100%" height="100%">
<defs >
<font id="metaserifpro-bookita" horiz-adv-x="538" ><font-face
    font-family="MetaSerifPro-BookIta"
    units-per-em="1000"
    panose-1="2 1 6 4 5 1 1 2 1 2"
    ascent="994"
    descent="-290"
    alphabetic="0" />
<missing-glyph horiz-adv-x="553" d="M71 0V689H482V0H71ZM121 50H432V639H121V50Z" />
<glyph unicode=" " glyph-name="space" horiz-adv-x="225" />
<glyph unicode="!" glyph-name="exclam" horiz-adv-x="325" d="M325 702L175 210H122L204 687L325 702ZM186 60Q186 32 166 12T119 -8T74 11T55 60Q55 87 73 106T120 125Q147 125 166 106T186 60Z" />
<glyph unicode="&quot;" glyph-name="quotedbl" horiz-adv-x="434" d="M380 453H295L345 709H430L380 453ZM201 453H116L166 709H251L201 453Z" />
<glyph unicode="#" glyph-name="numbersign" horiz-adv-x="561" d="M575 430H472L421 279H515L502 211H399L328 0H256L326 211H204L134 0H62L132 211H41L54 279H155L205 430H113L126 499H228L298 708H370L300 499H422L492 708H564L494 499H588L575 430ZM400 430H278L227
279H349L400 430Z" />
<glyph unicode="$" glyph-name="dollar" horiz-adv-x="497" d="M146 -100L164 -13Q61 -4 5 46L28 171H92Q92 106 109 75T174 35L232 319L190 341Q85 395 85 501Q85 590 147 644T310 700L328 785H373L355 698Q454 689 502 643L483 535H422Q422 630 345 648L292
394L322 379Q383 346 417 307T451 203Q451 102 391 45T208 -14L191 -100H146ZM363 170Q363 248 273 298L218 33Q288 34 325 71T363 170ZM170 531Q170 487 189 463T252 415L301 653Q240 652 205 619T170 531Z" />
<glyph unicode="%" glyph-name="percent" horiz-adv-x="928" d="M382 505Q382 395 325 318T175 240Q112 240 77 276T42 383Q42 488 98 569T250 651Q315 651 348 613T382 505ZM183 274Q214 274 238 301T275 368T294 446T301 514Q301 613 243 613Q191 613 158 536T124
374Q124 274 183 274ZM791 730L174 -123H120L737 730H791ZM898 255Q898 145 841 68T691 -10Q628 -10 593 26T558 133Q558 238 614 319T766 401Q831 401 864 363T898 255ZM699 24Q730 24 754 51T791 118T810 196T817 264Q817 363 759 363Q707 363 674 286T640 124Q640
24 699 24Z" />
<glyph unicode="&amp;" glyph-name="ampersand" horiz-adv-x="679" d="M588 287Q542 186 509 139L568 67Q596 33 645 33L640 0H506L447 71Q345 -14 236 -14Q123 -14 67 29T10 151Q10 280 214 349L193 373Q160 410 145 442T130 518Q130 589 183 644T335 700Q420
700 468 663T516 558Q516 436 320 362L480 172Q534 249 534 304Q534 328 520 337T468 348L475 383H684L677 348Q638 347 621 335T588 287ZM240 33Q336 33 419 103L237 321Q174 290 144 252T114 151Q114 98 147 66T240 33ZM282 408L298 390Q365 427 395 462T425
555Q425 603 400 629T332 655Q284 655 251 623T218 537Q218 479 282 408Z" />
<glyph unicode="&apos;" glyph-name="quotesingle" horiz-adv-x="255" d="M201 453H116L166 709H251L201 453Z" />
<glyph unicode="(" glyph-name="parenleft" horiz-adv-x="366" d="M265 -127L241 -159Q158 -118 109 -30T60 180Q60 297 95 407T213 618T415 775L433 741Q358 697 301 627T211 477T162 317T146 162Q146 60 177 -16T265 -127Z" />
<glyph unicode=")" glyph-name="parenright" horiz-adv-x="366" d="M133 743L157 775Q240 734 289 646T338 436Q338 319 303 209T185 -2T-17 -159L-35 -125Q40 -81 97 -11T187 139T236 299T252 454Q252 556 221 632T133 743Z" />
<glyph unicode="*" glyph-name="asterisk" horiz-adv-x="458" d="M422 467L282 465L290 321L244 311L202 450L71 396L50 436L165 521L79 633L109 664L221 577L298 698L336 680L291 544L428 511L422 467Z" />
<glyph unicode="+" glyph-name="plus" horiz-adv-x="580" d="M308 507H367L326 298H530L520 245H316L275 34H216L257 245H55L65 298H267L308 507Z" />
<glyph unicode="," glyph-name="comma" horiz-adv-x="264" d="M199 42Q199 -20 150 -68T32 -136L15 -107Q60 -90 87 -67T115 -22Q115 -13 111 -7T100 2T85 9Q52 24 52 64Q52 95 70 113T120 131Q155 131 177 106T199 42Z" />
<glyph unicode="-" glyph-name="hyphen" horiz-adv-x="313" d="M251 235H48L61 306H264L251 235Z" />
<glyph unicode="." glyph-name="period" horiz-adv-x="252" d="M187 90T187 59T167 7T116 -14T65 7T45 59T65 111T116 132T167 111Z" />
<glyph unicode="/" glyph-name="slash" horiz-adv-x="395" d="M455 761L18 -149H-50L386 761H455Z" />
<glyph unicode="0" glyph-name="zero" horiz-adv-x="566" d="M521 316Q521 182 446 84T248 -14Q150 -14 98 40T45 189Q45 275 75 350T169 475T316 525Q414 525 467 469T521 316ZM422 342Q422 474 312 474Q243 474 200 411Q138 322 138 169Q138 36 250 36Q307 36
349 81Q422 162 422 342Z" />
<glyph unicode="1" glyph-name="one" horiz-adv-x="397" d="M322 513L235 108Q231 91 231 76Q231 52 249 44T321 34L314 0H20L27 34Q97 39 116 51T146 114L211 421Q155 394 84 373L78 406L264 513H322Z" />
<glyph unicode="2" glyph-name="two" horiz-adv-x="456" d="M262 525Q341 525 383 490T425 393Q425 315 363 250T162 102L114 73H394L367 0H-15L-6 46L126 135Q228 203 274 257T321 382Q321 460 230 460Q157 460 90 391L61 425Q95 470 147 497T262 525Z" />
<glyph unicode="3" glyph-name="three" horiz-adv-x="457" d="M221 461Q145 461 68 398L39 431Q81 475 135 500T244 525Q323 525 370 488T417 378Q417 322 374 272T262 198Q380 173 380 65Q380 -37 280 -100T55 -164Q-11 -164 -64 -149L-75 -106Q-11 -116 22 -116Q132
-116 206 -67T280 78Q280 130 247 151T147 173Q136 173 102 171L111 223Q135 220 167 220Q235 220 277 262T319 372Q319 461 221 461Z" />
<glyph unicode="4" glyph-name="four" horiz-adv-x="526" d="M246 -179L288 18H-15L-6 60L312 513H410L68 67H299Q331 213 398 343L453 353L392 67H476L465 18H381L343 -160L246 -179Z" />
<glyph unicode="5" glyph-name="five" horiz-adv-x="436" d="M370 90Q370 -33 279 -98T57 -164Q-12 -164 -68 -143L-77 -99Q-21 -116 41 -116Q143 -116 207 -69T271 75Q271 187 166 187Q101 187 34 163L127 505H446L416 430H166L116 230Q165 243 215 243Q287 243
328 203T370 90Z" />
<glyph unicode="6" glyph-name="six" horiz-adv-x="550" d="M508 700L515 659Q250 555 157 341Q187 369 236 387T338 406Q405 406 447 361T489 242Q489 132 415 59T238 -14Q145 -14 95 42T45 203Q45 298 82 380T186 522T332 626T508 700ZM390 232Q390 345 299
345Q265 345 221 332T143 293Q129 246 129 192Q129 124 156 79T244 34Q307 34 348 89T390 232Z" />
<glyph unicode="7" glyph-name="seven" horiz-adv-x="461" d="M481 505L454 441Q276 254 111 -151L0 -177Q70 -19 175 148T386 430H54L82 505H481Z" />
<glyph unicode="8" glyph-name="eight" horiz-adv-x="548" d="M534 521Q534 457 488 410T357 343Q427 305 456 267T486 182Q486 101 421 44T246 -14Q140 -14 81 35T21 161Q21 291 212 345Q169 366 144 406T119 491Q119 568 180 620T337 672Q429 672 481 628T534
521ZM393 170Q393 212 364 243T250 318Q190 297 153 256T115 157Q115 98 148 65T247 31Q317 31 355 71T393 170ZM446 526Q446 570 418 596T333 623Q279 623 245 591T211 504Q211 465 234 434T317 372Q446 413 446 526Z" />
<glyph unicode="9" glyph-name="nine" horiz-adv-x="546" d="M501 306Q501 198 461 111T348 -36T188 -133T-5 -191L-30 -151Q113 -117 226 -36T375 133Q305 85 223 85Q143 85 94 133T44 261Q44 371 118 448T299 525Q392 525 446 468T501 306ZM391 192Q412 244
412 311Q412 380 385 427T297 474Q228 474 183 416T138 268Q138 209 165 176T245 143Q331 143 391 192Z" />
<glyph unicode=":" glyph-name="colon" horiz-adv-x="339" d="M207 90T207 59T187 7T136 -14T85 7T65 59T85 111T136 132T187 111ZM274 404T274 373T254 321T203 300T152 321T132 373T152 425T203 446T254 425Z" />
<glyph unicode=";" glyph-name="semicolon" horiz-adv-x="328" d="M263 404T263 373T243 321T192 300T141 321T121 373T141 425T192 446T243 425ZM209 42Q209 -20 160 -68T42 -136L25 -107Q70 -90 97 -67T125 -22Q125 -13 121 -7T110 2T95 9Q62 24 62 64Q62 95
80 113T130 131Q165 131 187 106T209 42Z" />
<glyph unicode="&lt;" glyph-name="less" horiz-adv-x="531" d="M394 56L65 254L79 326L491 558L478 486L124 290L406 117L394 56Z" />
<glyph unicode="=" glyph-name="equal" horiz-adv-x="609" d="M55 173L65 226H530L520 173H55ZM83 321L94 374H559L548 321H83Z" />
<glyph unicode="&gt;" glyph-name="greater" horiz-adv-x="524" d="M450 254L45 56L57 123L407 296L129 492L142 558L464 326L450 254Z" />
<glyph unicode="?" glyph-name="question" horiz-adv-x="443" d="M234 60Q234 30 213 9T163 -13Q135 -13 115 8T95 60Q95 88 114 108T163 128T213 108T234 60ZM269 654Q221 654 195 631T156 563H90L110 653Q185 700 273 700Q349 700 396 669T443 570Q443 506 406
462T288 372Q227 337 211 305T194 215H156Q141 245 141 282Q141 359 231 421Q297 466 320 494T343 575Q343 654 269 654Z" />
<glyph unicode="@" glyph-name="at" horiz-adv-x="906" d="M614 -1Q553 -1 524 23T495 100V103Q447 -1 350 -1Q296 -1 266 35T235 137Q235 278 318 365T513 452Q596 452 652 402Q648 392 643 370T632 328T627 306L584 131Q577 102 577 82Q577 57 588 48T626 38Q684
38 732 98T780 265Q780 423 696 502T472 581Q318 581 222 476T126 193Q126 48 208 -43T430 -135Q519 -135 591 -111L606 -141Q518 -176 418 -176Q251 -176 148 -78T45 194Q45 384 165 504T474 625Q650 625 755 530T861 276Q861 138 789 69T614 -1ZM511 189L554
376Q539 406 500 406Q419 406 373 330T326 144Q326 61 380 61Q416 61 445 93T511 189Z" />
<glyph unicode="A" glyph-name="A" horiz-adv-x="643" d="M428 107L419 215H193L138 107Q123 79 123 63Q123 48 138 42T185 35L178 0H-37L-30 35Q10 41 31 56T79 121L372 689H466L523 123Q528 77 543 58T595 35L588 0H349L356 35Q397 36 413 48T429 90Q429 96
428 107ZM335 490L218 263H415L395 475Q390 531 390 572Q390 581 390 588T390 598L391 602H385Q375 569 335 490Z" />
<glyph unicode="B" glyph-name="B" horiz-adv-x="606" d="M121 689H389Q586 689 586 538Q586 463 544 418T425 363V359Q484 351 521 313T559 221Q559 114 486 52Q448 20 398 10T251 0H-12L-6 35Q44 36 62 51T89 111L180 578Q184 604 184 610Q184 634 169 643T115
654L121 689ZM240 383H328Q401 383 440 417Q488 459 488 542Q488 597 460 618T364 640H290L240 383ZM320 335H231L175 49H277Q365 49 402 79Q453 123 453 220Q453 278 424 306T320 335Z" />
<glyph unicode="C" glyph-name="C" horiz-adv-x="578" d="M300 33Q359 33 394 58T453 143H519L498 38Q465 17 410 2T296 -14Q63 -14 63 240Q63 328 86 409T154 555T270 660T428 700Q532 700 595 649L573 540H505Q502 604 486 628T416 653Q349 653 298 612T220
504T180 369T167 232Q167 124 200 79T300 33Z" />
<glyph unicode="D" glyph-name="D" horiz-adv-x="658" d="M-12 0L-6 35Q44 36 62 51T89 111L180 578Q184 596 184 610Q184 634 169 643T115 654L121 689H357Q635 689 635 440Q635 336 602 233T511 74Q466 31 410 16T256 0H-12ZM362 642H291L176 51H260Q330 51
374 66T453 127Q491 176 512 268T534 448Q534 546 498 594T362 642Z" />
<glyph unicode="E" glyph-name="E" horiz-adv-x="568" d="M-12 0L-6 35Q44 36 62 51T89 111L180 578Q184 600 184 610Q184 634 169 643T115 654L121 689H590L571 539H529Q524 599 510 619T453 640H290L240 384H329Q376 384 397 398T429 455H470L433 265H392Q397
306 382 321T321 336H231L175 49H339Q396 49 421 72T466 165H511L479 0H-12Z" />
<glyph unicode="F" glyph-name="F" horiz-adv-x="543" d="M227 320L187 114Q183 90 183 82Q183 57 200 47T259 35L253 0H-12L-6 35Q44 36 62 51T89 111L180 578Q184 598 184 610Q184 634 169 643T115 654L121 689H585L567 534H525Q516 601 502 620T441 640H289L236
368H319Q366 368 387 382T419 439H460L422 246H381Q386 288 372 304T311 320H227Z" />
<glyph unicode="G" glyph-name="G" horiz-adv-x="648" d="M316 33Q387 33 432 63L463 226Q467 250 467 258Q467 282 450 291T388 302L395 337H645L638 302Q599 301 583 285T558 226L521 37Q428 -14 315 -14Q63 -14 63 244Q63 327 86 406T152 551T267 658T428 699Q549
699 611 649L589 540H521Q518 601 497 626T416 652Q349 652 298 611T220 505T180 371T167 233Q167 124 204 79T316 33Z" />
<glyph unicode="H" glyph-name="H" horiz-adv-x="699" d="M650 578L559 111Q555 85 555 78Q555 55 570 46T624 35L618 0H360L366 35Q416 36 434 51T461 111L505 340H231L187 111Q183 85 183 79Q183 56 198 46T252 35L246 0H-12L-6 35Q44 36 62 51T89 111L180 578Q184
595 184 610Q184 633 169 643T115 654L121 689H379L373 654Q323 653 305 638T278 578L241 390H515L552 578Q556 595 556 609Q556 632 540 642T487 654L493 689H751L745 654Q695 653 677 638T650 578Z" />
<glyph unicode="I" glyph-name="I" horiz-adv-x="327" d="M278 578L187 111Q183 89 183 79Q183 55 198 46T252 35L246 0H-12L-6 35Q44 36 62 51T89 111L180 578Q184 600 184 610Q184 634 169 643T115 654L121 689H379L373 654Q323 653 305 638T278 578Z" />
<glyph unicode="J" glyph-name="J" horiz-adv-x="336" d="M282 578L190 108Q167 -10 115 -64T-50 -147L-67 -110Q12 -78 42 -34T91 100L184 578Q188 604 188 610Q188 634 173 643T119 654L125 689H383L377 654Q327 653 309 638T282 578Z" />
<glyph unicode="K" glyph-name="K" horiz-adv-x="622" d="M510 547L344 385L493 84Q506 58 525 48T584 35L578 0H424L253 364L465 576Q499 610 499 629Q499 652 451 654L457 689H669L663 654Q628 649 601 630T510 547ZM278 578L187 111Q183 89 183 79Q183 55 198
46T252 35L246 0H-12L-6 35Q44 36 62 51T89 111L180 578Q184 600 184 610Q184 634 169 643T115 654L121 689H379L373 654Q323 653 305 638T278 578Z" />
<glyph unicode="L" glyph-name="L" horiz-adv-x="532" d="M175 49H316Q370 49 398 74T455 169H499L452 0H-12L-6 35Q44 36 62 51T89 111L180 578Q184 600 184 610Q184 634 169 643T115 654L121 689H384L378 654Q326 653 306 636T277 575L175 49Z" />
<glyph unicode="M" glyph-name="M" horiz-adv-x="831" d="M868 689L862 654Q810 651 791 635T767 578L707 114Q705 101 705 83Q705 57 717 47T762 35L756 0H515L521 35Q569 36 586 50T609 107L661 473Q668 521 683 591H677Q652 522 631 482L378 0H320L270 460Q262
534 262 592H256Q236 477 231 460L140 108Q133 80 133 70Q133 51 147 44T199 35L193 0H-17L-11 35Q31 36 48 52T77 114L199 578Q205 599 205 612Q205 633 189 642T134 654L140 689H335L382 251Q388 189 388 131V117H394Q409 177 443 244L670 689H868Z" />
<glyph unicode="N" glyph-name="N" horiz-adv-x="669" d="M526 0H461L290 408Q244 519 239 578H233Q227 486 209 394L154 111Q150 94 150 79Q150 55 165 46T219 35L213 0H-12L-6 35Q44 36 62 51T89 111L180 578Q184 600 184 610Q184 634 169 643T115 654L121 689H277L451
271Q487 184 491 127H497Q502 211 525 333L573 578Q577 600 577 610Q577 634 562 643T508 654L514 689H731L725 654Q680 653 663 638T638 578L526 0Z" />
<glyph unicode="O" glyph-name="O" horiz-adv-x="673" d="M650 438Q650 379 639 319T601 198T536 91T438 15T308 -14Q192 -14 128 56T63 252Q63 310 75 370T114 490T180 596T278 671T410 700Q521 700 585 633T650 438ZM546 467Q546 559 514 605T409 652Q308 652
252 562Q210 497 189 401T167 219Q167 120 200 77T307 33Q402 33 459 124Q501 191 523 289T546 467Z" />
<glyph unicode="P" glyph-name="P" horiz-adv-x="569" d="M187 114Q183 94 183 82Q183 57 200 47T259 35L253 0H-12L-6 35Q44 36 62 51T89 111L180 578Q184 600 184 610Q184 634 169 643T115 654L121 689H351Q476 689 531 649T586 520Q586 449 553 397T465 316Q408
287 300 287H220L187 114ZM485 522Q485 583 458 611T361 640H289L230 335H306Q380 335 415 361Q485 412 485 522Z" />
<glyph unicode="Q" glyph-name="Q" horiz-adv-x="673" d="M650 438Q650 369 632 297T580 159T486 47T351 -8Q357 -9 407 -21T491 -40T553 -46Q598 -46 625 -36L598 -112Q576 -122 524 -122Q481 -122 435 -102T330 -50T223 -4Q63 46 63 252Q63 310 75 370T114 490T180
596T279 671T411 700Q522 700 586 633T650 438ZM546 467Q546 560 514 606T410 652Q308 652 252 562Q210 497 189 401T167 219Q167 119 199 76T304 33Q402 33 459 124Q501 191 523 289T546 467Z" />
<glyph unicode="R" glyph-name="R" horiz-adv-x="612" d="M290 640L236 362H312Q478 362 478 526Q478 589 447 614T349 640H290ZM228 319L187 111Q183 89 183 79Q183 55 198 46T252 35L246 0H-12L-6 35Q44 36 62 51T89 111L180 578Q184 598 184 610Q184 634 169
643T115 654L121 689H373Q579 689 579 537Q579 432 514 380T339 327V323Q403 306 432 258Q440 243 450 218T475 155T498 93Q510 62 524 49T573 35L567 0H425Q371 171 342 239Q322 286 299 301T228 319Z" />
<glyph unicode="S" glyph-name="S" horiz-adv-x="503" d="M215 33Q285 33 324 70T364 170Q364 257 271 304L212 335Q158 363 130 402T102 501Q102 590 165 645T324 700Q446 700 505 643L486 535H425Q425 653 314 653Q254 653 220 620T186 531Q186 486 207 460T273
410L332 379Q389 349 421 309T453 204Q453 105 390 46T206 -14Q73 -14 4 46L27 171H91Q91 97 117 65T215 33Z" />
<glyph unicode="T" glyph-name="T" horiz-adv-x="569" d="M120 689H626L594 532H548Q550 567 549 591T535 627T490 640H413L310 111Q306 90 306 80Q306 56 322 47T381 35L374 0H106L113 35Q165 36 184 51T212 111L315 640H244Q196 640 176 618T136 532H88L120 689Z" />
<glyph unicode="U" glyph-name="U" horiz-adv-x="670" d="M317 46Q467 46 501 221L570 578Q574 602 574 610Q574 633 558 643T500 654L506 689H732L726 654Q681 653 664 638T639 578L570 221Q546 99 483 43T314 -14Q202 -14 148 29T94 152Q94 191 103 239L168
578Q171 594 171 607Q171 633 156 642T103 654L109 689H367L361 654Q310 653 293 638T266 578L199 236Q190 191 190 155Q190 98 220 72T317 46Z" />
<glyph unicode="V" glyph-name="V" horiz-adv-x="636" d="M251 582L275 279Q279 234 284 78H290Q326 170 382 279L538 582Q553 610 553 626Q553 641 538 647T491 654L498 689H713L706 654Q665 648 645 631T598 562L302 0H210L153 565Q148 613 136 631T88 654L95
689H337L330 654Q283 652 266 637T251 582Z" />
<glyph unicode="W" glyph-name="W" horiz-adv-x="877" d="M575 689L597 297Q602 212 602 122H608Q669 284 674 297L781 560Q796 596 796 615T781 643T732 654L738 689H954L948 654Q912 649 891 628T849 557L613 0H524L500 438Q498 478 498 501Q498 518 498 539T499
561H493Q475 497 449 438L261 0H169L151 566Q149 615 137 632T88 654L94 689H331L325 654Q279 650 262 637T244 588V582L253 298V263Q253 190 249 122H255Q284 206 324 298L491 689H575Z" />
<glyph unicode="X" glyph-name="X" horiz-adv-x="605" d="M525 574L371 371L470 117Q487 72 505 56T554 35L548 0H308L314 35Q359 36 371 55T368 112L297 302H293L153 110Q130 78 130 61Q130 38 183 35L177 0H-32L-26 35Q5 39 30 57T95 128L273 359L185 580Q169
622 153 636T106 654L112 689H350L344 654Q279 651 279 616Q279 600 288 578L346 426H350L459 577Q483 610 483 628Q483 651 436 654L442 689H642L636 654Q605 650 581 634T525 574Z" />
<glyph unicode="Y" glyph-name="Y" horiz-adv-x="589" d="M222 111L252 276L166 572Q152 617 136 633T88 654L94 689H323L317 654Q256 653 256 615Q256 603 263 577L327 341H331L486 579Q507 612 507 628Q507 651 454 654L460 689H666L660 654Q628 650 605 632T545
561L353 282L319 106Q312 65 327 51T391 35L384 0H116L123 35Q175 36 194 52T222 111Z" />
<glyph unicode="Z" glyph-name="Z" horiz-adv-x="553" d="M585 633L110 49H310Q367 49 399 76T460 172H504L456 0H-7L3 56L477 640H295Q246 640 215 614T156 527H112L157 689H595L585 633Z" />
<glyph unicode="[" glyph-name="bracketleft" horiz-adv-x="351" d="M220 -155H35L216 773H401L393 731H287L123 -113H229L220 -155Z" />
<glyph unicode="\" glyph-name="backslash" horiz-adv-x="438" d="M195 761L368 -149H303L130 761H195Z" />
<glyph unicode="]" glyph-name="bracketright" horiz-adv-x="351" d="M156 773H341L160 -155H-24L-15 -113H90L254 731H148L156 773Z" />
<glyph unicode="^" glyph-name="asciicircum" horiz-adv-x="594" d="M534 310H463L362 636L138 310H60L341 708H409L534 310Z" />
<glyph unicode="_" glyph-name="underscore" horiz-adv-x="496" d="M437 -125H-63V-75H437V-125Z" />
<glyph unicode="`" glyph-name="grave" horiz-adv-x="545" d="M361 600L341 566L129 662L182 753L361 600Z" />
<glyph unicode="a" glyph-name="a" horiz-adv-x="547" d="M344 505Q422 505 435 453Q446 471 472 495H522Q495 449 474 355L421 122Q416 99 416 87Q416 48 461 48Q475 48 493 51L496 20Q441 -9 398 -9Q326 -9 326 70Q326 97 333 126Q245 -12 150 -12Q95 -12 65
24T35 123Q35 272 130 388T344 505ZM338 458Q283 458 235 411T159 289T131 129Q131 53 183 53Q221 53 267 102T350 214L399 421Q387 458 338 458Z" />
<glyph unicode="b" glyph-name="b" horiz-adv-x="550" d="M228 -14Q187 -14 158 3T117 44Q97 12 83 0H30Q55 50 74 140L170 587Q175 610 175 622Q175 650 159 661T105 674L112 704L255 730H268Q274 712 274 681Q274 630 258 561L213 365Q301 503 407 503Q458 503
486 466T515 355Q515 259 480 175T379 39T228 -14ZM232 35Q315 35 367 129T419 353Q419 438 371 438Q331 438 281 387T194 273L152 77Q158 61 181 48T232 35Z" />
<glyph unicode="c" glyph-name="c" horiz-adv-x="455" d="M317 504Q407 504 455 464L435 372H367Q368 418 355 437T308 457Q232 457 181 369T130 168Q130 107 157 75T234 43Q304 43 370 104L396 69Q365 34 317 10T215 -14Q131 -14 83 35T35 176Q35 254 70 329T171
454T317 504Z" />
<glyph unicode="d" glyph-name="d" horiz-adv-x="553" d="M361 214L407 429Q388 457 349 457Q259 457 195 363T131 135Q131 53 186 53Q231 53 277 101T361 214ZM344 126Q309 68 261 28T156 -12T68 25T35 128Q35 232 82 320T205 456T363 505Q396 505 422 491L441
587Q445 606 445 623Q445 651 429 661T376 674L383 704L524 730H537Q542 715 542 684Q542 634 527 561L433 122Q428 99 428 86Q428 66 438 57T473 48Q487 48 505 51L508 20Q444 -9 406 -9Q338 -9 338 73Q338 98 344 126Z" />
<glyph unicode="e" glyph-name="e" horiz-adv-x="477" d="M130 171Q130 110 157 77T232 43Q307 43 381 112L407 77Q327 -14 203 -14Q121 -14 78 36T35 179Q35 257 70 331T172 454T316 504Q383 504 422 472T462 380Q462 306 383 262T154 218H132Q130 203 130 171ZM370
386Q370 416 354 436T310 456Q251 456 205 401T140 264H169Q370 264 370 386Z" />
<glyph unicode="f" glyph-name="f" horiz-adv-x="303" d="M212 436L119 -27Q86 -188 -34 -188Q-63 -188 -95 -172V-141Q-32 -137 -6 -116T31 -35L123 436H60L66 468L132 490L148 570Q163 648 214 689T338 730Q393 730 433 712L416 629H355Q355 687 321 687Q292
687 273 668T243 599L222 491H343L318 436H212Z" />
<glyph unicode="g" glyph-name="g" horiz-adv-x="496" d="M526 440Q491 426 461 426Q426 426 391 445Q435 408 435 343Q435 285 381 235T220 185Q217 185 211 185T201 186Q170 180 147 163T124 128Q124 103 157 102L239 100Q327 98 369 68T411 -23Q411 -106 342
-152T166 -198Q63 -198 14 -170T-35 -95Q-35 -43 31 -13L71 -11Q49 -43 49 -85Q49 -154 168 -154Q327 -154 327 -48Q327 13 228 17Q163 20 125 24Q84 27 62 41T40 92Q40 162 155 199Q110 210 86 246T61 328Q61 405 120 454T259 504Q297 504 351 493T424 481Q461
481 504 508L526 440ZM235 231Q288 231 316 273T344 377Q344 458 259 458Q215 458 183 420T151 314Q151 231 235 231Z" />
<glyph unicode="h" glyph-name="h" horiz-adv-x="531" d="M330 122L380 362Q385 385 385 398Q385 434 352 434Q310 434 263 385T179 273L121 0H30L156 587Q160 606 160 622Q160 650 144 661T91 674L98 704L241 730H254Q260 712 260 683Q260 632 244 561L201 368Q291
505 392 505Q436 505 457 480T479 413Q479 396 474 371L421 122Q415 93 415 82Q415 64 424 56T456 48Q470 48 493 51L496 20Q432 -9 392 -9Q323 -9 323 65Q323 85 330 122Z" />
<glyph unicode="i" glyph-name="i" horiz-adv-x="268" d="M205 367L149 122Q143 98 143 82Q143 64 152 56T185 48Q200 48 222 51L225 20Q161 -9 113 -9Q47 -9 47 65Q47 88 55 122L111 354Q117 376 117 392Q117 418 99 429T39 441L46 472Q94 496 146 496Q213 496
213 425Q213 402 205 367ZM258 670T258 644T240 600T196 581T152 599T134 644T152 688T196 707T240 689Z" />
<glyph unicode="j" glyph-name="j" horiz-adv-x="265" d="M218 367L143 -4Q126 -90 78 -134T-60 -206L-76 -165Q-13 -138 13 -103T55 12L123 354Q129 381 129 392Q129 418 111 429T51 441L58 472Q106 496 158 496Q225 496 225 423Q225 405 218 367ZM270 670T270
644T252 600T208 581T164 599T146 644T164 688T208 707T252 689Z" />
<glyph unicode="k" glyph-name="k" horiz-adv-x="487" d="M244 561L121 0H30L156 587Q160 606 160 622Q160 650 144 661T91 674L98 704L241 730H254Q260 712 260 683Q260 632 244 561ZM267 87L191 269L406 491H507L498 448Q462 448 427 426T342 355L276 292L358
103Q371 74 383 63T424 52Q438 52 459 55L462 24Q410 -6 368 -6Q333 -6 311 14T267 87Z" />
<glyph unicode="l" glyph-name="l" horiz-adv-x="266" d="M240 561L146 122Q140 92 140 81Q140 63 149 56T183 48Q199 48 223 51L226 20Q164 -9 116 -9Q46 -9 46 67Q46 90 52 122L152 587Q156 606 156 623Q156 650 140 661T87 674L94 704L237 730H250Q256 712
256 683Q256 632 240 561Z" />
<glyph unicode="m" glyph-name="m" horiz-adv-x="793" d="M470 365Q565 505 654 505Q698 505 719 480T741 413Q741 396 736 371L683 122Q677 94 677 82Q677 64 686 56T719 48Q734 48 755 51L758 20Q694 -9 655 -9Q586 -9 586 68Q586 92 592 122L642 362Q647 385
647 398Q647 434 614 434Q548 434 453 278L394 0H303L379 359Q384 384 384 398Q384 434 352 434Q284 434 189 273L131 0H40L115 354Q120 379 120 393Q120 419 104 430T46 441L53 472Q101 496 151 496Q210 496 210 416Q210 385 203 357Q298 505 391 505Q473 505
473 408Q473 388 470 365Z" />
<glyph unicode="n" glyph-name="n" horiz-adv-x="541" d="M340 122L390 362Q395 385 395 398Q395 434 362 434Q320 434 273 385T189 273L131 0H40L115 354Q120 379 120 393Q120 419 104 430T46 441L53 472Q101 496 151 496Q210 496 210 416Q210 388 203 357Q298
505 402 505Q446 505 467 480T489 413Q489 396 484 371L431 122Q425 94 425 82Q425 64 434 56T467 48Q482 48 503 51L506 20Q442 -9 404 -9Q333 -9 333 65Q333 85 340 122Z" />
<glyph unicode="o" glyph-name="o" horiz-adv-x="518" d="M483 310Q483 177 409 82T220 -14Q135 -14 85 39T35 178Q35 315 113 409T298 504Q386 504 434 450T483 310ZM387 325Q387 456 294 456Q236 456 192 393Q131 305 131 163Q131 34 224 34Q276 34 315 79Q349
119 368 184T387 325Z" />
<glyph unicode="p" glyph-name="p" horiz-adv-x="547" d="M190 274L145 64Q163 33 208 33Q276 33 324 83T394 203T416 353Q416 438 368 438Q328 438 277 387T190 274ZM131 -3L112 -93Q108 -109 108 -124Q108 -145 122 -152T177 -162L170 -196H-70L-63 -162Q-19
-159 -4 -147T21 -92L116 354Q121 379 121 393Q121 419 105 430T47 441L54 472Q102 496 152 496Q211 496 211 416Q211 388 204 357Q297 503 404 503Q455 503 483 466T512 355Q512 261 476 178T367 40T201 -14Q162 -14 131 -3Z" />
<glyph unicode="q" glyph-name="q" horiz-adv-x="522" d="M276 -93L328 126Q240 -12 145 -12Q90 -12 60 24T30 123Q30 272 125 388T339 505Q417 505 430 453Q441 471 467 495H517Q490 449 469 355L367 -92Q362 -115 362 -125Q362 -144 375 -152T421 -162L413 -196H174L182
-162Q233 -160 250 -147T276 -93ZM333 458Q278 458 230 411T154 289T126 129Q126 53 178 53Q216 53 262 102T345 214L394 421Q382 458 333 458Z" />
<glyph unicode="r" glyph-name="r" horiz-adv-x="360" d="M204 358Q233 421 272 463T352 505Q367 505 380 500L359 398Q347 403 329 403Q276 403 236 356T177 218L131 0H40L115 354Q120 379 120 393Q120 419 104 430T46 441L53 472Q101 496 151 496Q208 496 208
411Q208 385 204 358Z" />
<glyph unicode="s" glyph-name="s" horiz-adv-x="423" d="M167 -14Q68 -14 5 31L22 129H85Q83 74 103 53T175 32Q223 32 254 54T286 122Q286 155 269 172T212 207L161 229Q114 249 89 279T64 358Q64 427 118 466T252 505Q337 505 393 467L378 377H317Q315 418
296 438T232 459Q192 459 169 439T146 381Q146 356 158 339T204 308L255 286Q314 261 342 230T370 148Q370 77 313 32T167 -14Z" />
<glyph unicode="t" glyph-name="t" horiz-adv-x="319" d="M343 491L318 436H212L148 134Q142 104 142 85Q142 59 155 49T197 38Q221 38 257 51L265 18Q201 -14 152 -14Q50 -14 50 77Q50 100 56 127L121 436H62L68 468L139 491Q177 590 214 633L266 641Q240 571
224 491H343Z" />
<glyph unicode="u" glyph-name="u" horiz-adv-x="537" d="M329 126Q238 -14 136 -14Q92 -14 71 11T49 78Q49 95 54 120L104 354Q109 379 109 393Q109 419 93 430T35 441L42 472Q90 496 140 496Q169 496 186 475T203 412Q203 393 196 356L148 129Q143 106 143 93Q143
57 176 57Q218 57 265 106T349 218L407 491H497L420 122Q415 100 415 89Q415 49 464 49Q470 49 492 51L495 20Q440 -9 394 -9Q359 -9 341 13T323 75Q323 99 329 126Z" />
<glyph unicode="v" glyph-name="v" horiz-adv-x="457" d="M378 498L462 483V448L194 -4H123L93 356Q89 409 76 425T15 441L22 472Q70 496 117 496Q151 496 162 469T180 365L191 218Q194 171 194 139Q194 98 192 86H198L260 197Q310 285 337 350T370 442T378 498Z" />
<glyph unicode="w" glyph-name="w" horiz-adv-x="701" d="M481 100H486L525 190Q618 402 624 498L706 483V448L475 -5H414L388 230Q383 273 381 321Q380 345 380 369H377L208 -5H136L93 356Q89 391 85 406Q80 426 65 433T15 441L22 472Q70 496 117 496Q150 496
162 472T181 381L196 231Q202 170 202 115V100H208L378 491H439L468 250Q481 146 481 100Z" />
<glyph unicode="x" glyph-name="x" horiz-adv-x="480" d="M194 252L151 381Q138 419 120 430T59 441L66 472Q114 496 153 496Q183 496 202 477T236 407L264 305L382 491H490L481 448Q447 445 427 433T381 388L281 255L329 106Q340 74 354 62T397 49Q411 49 427
51L430 20Q368 -9 325 -9Q269 -9 238 104L211 200L81 0H-19L-10 43Q27 50 49 66T103 127L194 252Z" />
<glyph unicode="y" glyph-name="y" horiz-adv-x="468" d="M168 1L138 -2Q134 107 114 237L96 356Q88 409 75 425T14 441L21 472Q69 496 115 496Q149 496 161 470T185 365L202 247Q213 174 213 115Q213 108 213 98T212 85H218L311 262Q343 322 363 389T386 498L473
483V448L215 -21Q165 -112 117 -156T2 -213L-20 -139Q49 -124 91 -97T168 1Z" />
<glyph unicode="z" glyph-name="z" horiz-adv-x="435" d="M453 450L83 85Q107 85 151 83Q166 82 204 80T258 77Q323 77 364 153L395 145Q366 48 344 19T278 -11Q239 -11 173 10T75 31Q34 31 15 0H-30L-24 39L336 405Q304 406 247 408T174 411Q144 411 126 394T91
341L55 346Q73 429 97 464T165 499Q198 499 267 480T360 460Q393 460 414 491H460L453 450Z" />
<glyph unicode="{" glyph-name="braceleft" horiz-adv-x="380" d="M45 292L52 326Q106 326 136 347T176 417L222 654Q233 715 271 744T360 773H440L432 733H375Q312 733 298 659L253 429Q242 370 213 343T153 311L152 307Q175 303 192 284T210 226Q210 208 206
189L161 -41Q158 -53 158 -65Q158 -115 210 -115H267L259 -155H179Q83 -155 83 -76Q83 -56 87 -36L134 201Q137 216 137 228Q137 262 114 277T45 292Z" />
<glyph unicode="|" glyph-name="bar" horiz-adv-x="265" d="M89 -149H25L201 761H265L89 -149Z" />
<glyph unicode="}" glyph-name="braceright" horiz-adv-x="389" d="M364 326L357 292Q303 292 274 271T234 201L186 -40Q175 -98 138 -126T49 -155H-30L-22 -116H34Q97 -116 111 -42L156 189Q167 248 196 275T256 307L257 311Q234 315 217 334T199 392Q199 410
203 429L248 659Q251 671 251 683Q251 733 199 733H142L150 773H230Q279 773 302 754T326 693Q326 674 322 654L276 417Q273 402 273 390Q273 326 364 326Z" />
<glyph unicode="~" glyph-name="asciitilde" horiz-adv-x="554" d="M379 320Q439 320 476 383L514 362Q490 303 453 270T372 237Q331 237 271 261T181 286Q134 286 94 219L60 238Q80 301 114 334T193 368Q233 368 290 344T379 320Z" />
</font>
</defs>
</svg>
