<?xml version="1.0" standalone="no"?> <!DOCTYPE svg PUBLIC "-//W3C//DTD SVG 1.0//EN" "http://www.w3.org/TR/2001/REC-SVG-20010904/DTD/svg10.dtd" > <svg xmlns="http://www.w3.org/2000/svg" width="100%" height="100%">
<defs >
<font id="metaserifpro-medi" horiz-adv-x="566" ><font-face
    font-family="MetaSerifPro-Medi"
    units-per-em="1000"
    panose-1="2 1 6 4 5 1 1 2 1 2"
    ascent="994"
    descent="-290"
    alphabetic="0" />
<missing-glyph horiz-adv-x="553" d="M71 0V689H482V0H71ZM121 50H432V639H121V50Z" />
<glyph unicode=" " glyph-name="space" horiz-adv-x="225" />
<glyph unicode="!" glyph-name="exclam" horiz-adv-x="304" d="M114 217L74 687L227 704L188 217H114ZM184 -10T151 -10T95 13T72 71Q72 104 95 127T151 150T208 127T232 71T208 14Z" />
<glyph unicode="&quot;" glyph-name="quotedbl" horiz-adv-x="442" d="M357 453H264V709H357V453ZM178 453H85V709H178V453Z" />
<glyph unicode="#" glyph-name="numbersign" horiz-adv-x="563" d="M62 426V503H166L195 708H264L236 503H364L392 708H462L433 503H530V426H423L404 287H500V211H394L364 0H294L323 211H195L166 0H97L126 211H33V287H136L155 426H62ZM225 426L206 287H334L354 426H225Z" />
<glyph unicode="$" glyph-name="dollar" horiz-adv-x="559" d="M300 -100H250V-12Q126 -11 34 44V173H126Q134 108 162 77T250 42V297L209 308Q125 332 84 376T43 498Q43 587 98 640T250 702V789H300V704Q414 700 487 654V531H400Q392 582 370 610T300 646V417L339
407Q426 383 473 336T520 207Q520 112 463 56T300 -9V-100ZM403 161Q403 212 380 238T300 283V43Q403 58 403 161ZM152 587T152 542T174 473T250 431V647Q204 643 178 615Z" />
<glyph unicode="%" glyph-name="percent" horiz-adv-x="951" d="M371 448Q371 349 322 295T199 241Q123 241 77 295T30 447Q30 547 77 601T201 656Q276 656 323 600T371 448ZM267 446Q267 614 199 614Q165 614 149 577T132 455Q132 362 147 322T200 281Q267 281
267 446ZM741 730L254 -123H192L679 730H741ZM921 198Q921 99 872 45T748 -9Q672 -9 626 45T579 197Q579 297 627 351T751 406Q826 406 873 350T921 198ZM817 196Q817 364 748 364Q714 364 698 327T682 205Q682 112 697 72T749 31Q817 31 817 196Z" />
<glyph unicode="&amp;" glyph-name="ampersand" horiz-adv-x="705" d="M489 548Q489 489 449 447T336 369L519 181Q538 228 538 278Q538 315 524 328T464 344V383H682V344Q639 343 626 330T608 277Q599 204 560 138L624 72Q657 39 705 39V0H530L478 52Q396 -12
272 -12Q159 -12 95 33T30 159Q30 229 70 269T195 345L163 377Q119 420 99 454T79 539Q79 607 135 654T286 701Q382 701 435 662T489 548ZM312 44Q392 44 445 88L229 309Q192 281 176 254T160 182Q160 123 201 84T312 44ZM200 558Q200 524 219 496T281 426L305
403Q348 439 363 469T378 551Q378 648 287 648Q246 648 223 625T200 558Z" />
<glyph unicode="&apos;" glyph-name="quotesingle" horiz-adv-x="263" d="M178 453H85V709H178V453Z" />
<glyph unicode="(" glyph-name="parenleft" horiz-adv-x="338" d="M166 320Q166 244 171 187T191 68T238 -40T318 -114L297 -154Q225 -126 175 -80T98 29T60 161T49 319Q49 495 103 604T297 775L318 734Q226 676 196 577T166 320Z" />
<glyph unicode=")" glyph-name="parenright" horiz-adv-x="338" d="M172 320Q172 475 142 575T20 734L41 775Q180 713 234 604T289 319Q289 231 278 162T240 29T163 -80T41 -154L20 -114Q69 -86 100 -42T147 63T167 182T172 320Z" />
<glyph unicode="*" glyph-name="asterisk" horiz-adv-x="461" d="M421 557L301 494L364 368L327 339L229 442L134 342L98 369L160 494L40 559L53 600L188 577L210 712H252L273 577L407 599L421 557Z" />
<glyph unicode="+" glyph-name="plus" horiz-adv-x="576" d="M253 507H321V303H521V240H321V33H253V240H55V303H253V507Z" />
<glyph unicode="," glyph-name="comma" horiz-adv-x="294" d="M228 39Q228 -29 185 -78T65 -146L40 -110Q137 -78 137 -29Q137 -15 129 -8T100 8Q54 28 54 72Q54 104 77 126T135 149Q176 149 202 118T228 39Z" />
<glyph unicode="-" glyph-name="hyphen" horiz-adv-x="332" d="M281 228H51V323H281V228Z" />
<glyph unicode="." glyph-name="period" horiz-adv-x="281" d="M223 106T223 71T199 11T140 -14T81 11T57 71T81 130T140 154T199 130Z" />
<glyph unicode="/" glyph-name="slash" horiz-adv-x="411" d="M26 -149L286 765H369L109 -149H26Z" />
<glyph unicode="0" glyph-name="zero" horiz-adv-x="569" d="M529 256Q529 127 461 57T282 -14Q175 -14 108 58T41 253Q41 373 109 446T285 520Q393 520 461 449T529 256ZM395 255Q395 463 283 463Q225 463 200 414T174 256Q174 144 200 93T286 41Q395 41 395 255Z" />
<glyph unicode="1" glyph-name="one" horiz-adv-x="414" d="M289 514V117Q289 71 305 57T382 40V0H65V40Q130 43 148 57T167 118V411Q115 383 54 366L37 407L211 514H289Z" />
<glyph unicode="2" glyph-name="two" horiz-adv-x="464" d="M230 522Q324 522 373 480T423 363Q423 324 409 293T361 230T289 174T185 112L146 89H439L422 0H21V63L122 138Q165 170 188 189T237 237T275 292T287 352Q287 394 260 418T189 443Q122 443 62 406L35
456Q117 522 230 522Z" />
<glyph unicode="3" glyph-name="three" horiz-adv-x="475" d="M193 445Q116 445 52 401L21 449Q114 522 226 522Q316 522 368 480T420 363Q420 243 289 206Q358 193 398 150T438 50Q438 -23 391 -73T277 -143T130 -164Q65 -164 13 -151L2 -100Q60 -108 104 -108Q306
-108 306 46Q306 111 270 140T163 169Q134 169 117 167V229Q155 227 173 227Q234 227 264 255T294 351Q294 396 268 420T193 445Z" />
<glyph unicode="4" glyph-name="four" horiz-adv-x="553" d="M325 -179V13H21V68L246 519H372L115 71H325Q326 232 370 338L448 355V71H532V13H448V-160L325 -179Z" />
<glyph unicode="5" glyph-name="five" horiz-adv-x="473" d="M435 64Q435 -10 391 -63T282 -140T142 -164Q74 -164 21 -146L9 -94Q62 -108 121 -108Q199 -108 251 -71T304 49Q304 114 272 148T178 183Q118 183 62 161L94 507H424L410 407H154L138 237Q178 250
226 250Q321 250 378 201T435 64Z" />
<glyph unicode="6" glyph-name="six" horiz-adv-x="545" d="M455 651Q334 605 268 540T180 366Q239 409 310 409Q399 409 455 358T511 210Q511 109 448 48T279 -14Q168 -14 105 58T42 259Q42 352 75 428T166 557T291 643T438 698L455 651ZM280 345Q223 345 173
312Q170 291 170 252Q170 144 200 92T286 39Q387 39 387 201Q387 279 360 312T280 345Z" />
<glyph unicode="7" glyph-name="seven" horiz-adv-x="465" d="M446 507L431 416Q262 189 202 -146L70 -173Q104 -29 182 124T354 405H19L36 507H446Z" />
<glyph unicode="8" glyph-name="eight" horiz-adv-x="557" d="M38 162Q38 219 79 260T182 326Q66 388 66 494Q66 578 128 626T280 674Q375 674 432 631T489 517Q489 424 362 370Q438 336 478 296T519 181Q519 92 453 40T277 -13Q160 -13 99 35T38 162ZM403 152Q403
213 351 247Q325 264 224 306Q153 246 153 167Q153 41 278 41Q336 41 369 70T403 152ZM179 518Q179 476 207 448T312 389Q377 441 377 515Q377 565 353 592T279 620Q232 620 206 592T179 518Z" />
<glyph unicode="9" glyph-name="nine" horiz-adv-x="547" d="M44 -149Q202 -97 286 -11Q348 54 364 141Q307 100 236 100Q148 100 92 152T36 299Q36 400 100 461T268 523Q377 523 441 453T505 253Q505 159 471 82T375 -48T241 -135T82 -190L44 -149ZM267 165Q326
165 373 196Q377 224 377 265Q377 470 263 470Q160 470 160 308Q160 165 267 165Z" />
<glyph unicode=":" glyph-name="colon" horiz-adv-x="313" d="M240 408T240 373T216 314T156 289Q122 289 98 313T74 373T98 432T156 457Q191 457 215 433ZM240 106T240 71T216 11T156 -14Q122 -14 98 11T74 71T98 130T156 154Q191 154 215 130Z" />
<glyph unicode=";" glyph-name="semicolon" horiz-adv-x="320" d="M246 39Q246 -29 203 -78T83 -146L58 -110Q155 -78 155 -29Q155 -15 147 -9T118 8Q72 29 72 72Q72 104 95 126T154 149Q194 149 220 118T246 39ZM236 407T236 372T212 313T153 288T94 312T70 372T94
431T153 456T212 432Z" />
<glyph unicode="&lt;" glyph-name="less" horiz-adv-x="480" d="M425 51L55 251V328L425 562V482L121 294L425 127V51Z" />
<glyph unicode="=" glyph-name="equal" horiz-adv-x="576" d="M55 165V228H521V165H55ZM55 318V381H521V318H55Z" />
<glyph unicode="&gt;" glyph-name="greater" horiz-adv-x="480" d="M425 251L55 51V127L359 294L55 482V562L425 328V251Z" />
<glyph unicode="?" glyph-name="question" horiz-adv-x="459" d="M294 105T294 71T270 12T211 -13T154 11T130 71Q130 105 153 128T211 152T269 129ZM214 644Q138 644 130 551H47V655Q120 703 226 703Q311 703 363 665T416 547Q416 514 406 487T375 439T343 409T311
386Q264 355 247 333T230 270Q230 243 236 219H182Q154 259 154 305Q154 369 223 431Q247 453 258 465T281 503T293 560Q293 599 272 621T214 644Z" />
<glyph unicode="@" glyph-name="at" horiz-adv-x="907" d="M607 4Q541 4 511 27T481 100Q431 2 338 2Q285 2 256 36T227 134Q227 269 310 360T512 451Q605 451 660 411Q641 348 634 317L590 128Q585 100 585 88Q585 66 596 57T633 48Q691 48 734 107T777 275Q777
428 696 503T475 579Q321 579 225 475T129 193Q129 48 211 -42T433 -132Q522 -132 594 -108L609 -141Q521 -176 421 -176Q252 -176 148 -78T43 194Q43 383 165 504T477 625Q652 625 758 531T864 279Q864 141 790 73T607 4ZM497 185L542 378Q527 400 496 400Q426
400 382 321T337 142Q337 74 381 74Q410 74 437 102T497 185Z" />
<glyph unicode="A" glyph-name="A" horiz-adv-x="665" d="M446 104L416 200H195L166 104Q161 88 161 74Q161 55 176 49T230 41V0H12V41Q46 44 61 58T91 116L278 692H387L578 118Q592 76 606 60T653 41V0H387V41Q422 43 436 51T451 77Q451 89 446 104ZM261 420L213
262H397L347 421Q318 514 307 570H302Q284 493 261 420Z" />
<glyph unicode="B" glyph-name="B" horiz-adv-x="622" d="M32 0V41Q77 42 91 56T106 114V576Q106 619 92 634T32 650V692H322Q565 692 565 515Q565 393 427 363V359Q512 348 554 302T596 184Q596 93 533 47T357 0H32ZM235 59H336Q406 59 433 89T461 194Q461 266
432 296T328 326H235V59ZM235 385H315Q380 385 405 412T431 506Q431 575 404 603T311 631H235V385Z" />
<glyph unicode="C" glyph-name="C" horiz-adv-x="600" d="M353 -12Q200 -12 121 79T42 338Q42 516 126 610T353 704Q486 704 560 656V531H469Q456 591 431 617T350 644Q268 644 227 576T185 343Q185 255 196 196T232 104T285 60T356 47Q414 47 441 73T479 161H565V41Q493
-12 353 -12Z" />
<glyph unicode="D" glyph-name="D" horiz-adv-x="681" d="M32 0V41Q77 42 91 56T106 114V576Q106 619 92 634T32 650V692H306Q465 692 552 608T639 344Q639 179 557 90T304 0H32ZM237 60H302Q374 60 415 81T478 164T500 335Q500 502 454 567T305 632H237V60Z" />
<glyph unicode="E" glyph-name="E" horiz-adv-x="580" d="M32 0V41Q77 42 91 56T106 114V576Q106 619 92 634T32 650V692H519L530 532H470Q453 592 435 611T370 631H235V385H311Q358 385 375 399T395 456H449V255H395Q392 296 375 311T312 326H235V59H379Q433
59 453 82T480 175H542V0H32Z" />
<glyph unicode="F" glyph-name="F" d="M32 0V41Q77 42 91 56T106 114V576Q106 619 92 634T32 650V692H520L532 529H473Q453 593 435 612T367 631H235V375H311Q358 375 375 389T395 446H449V244H395Q392 285 375 301T312 317H235V116Q235 72 252 57T321 41V0H32Z" />
<glyph unicode="G" glyph-name="G" horiz-adv-x="672" d="M456 72V230Q456 274 440 288T372 303V345H650V303Q612 302 599 288T585 230V47Q499 -12 351 -12Q206 -12 124 80T42 339Q42 515 127 609T356 704Q497 704 573 653V529H482Q470 590 443 617T350 644Q263
644 224 568T184 339Q184 184 224 115T357 46Q422 46 456 72Z" />
<glyph unicode="H" glyph-name="H" horiz-adv-x="729" d="M494 114V329H235V114Q235 71 249 57T309 41V0H32V41Q77 42 91 56T106 114V576Q106 619 92 634T32 650V692H309V650Q264 649 250 634T235 576V392H494V576Q494 619 479 634T420 650V692H696V650Q652 649
637 634T622 576V114Q622 71 637 57T696 41V0H420V41Q464 42 479 56T494 114Z" />
<glyph unicode="I" glyph-name="I" horiz-adv-x="341" d="M106 114V576Q106 619 92 634T32 650V692H309V650Q264 649 250 634T235 576V114Q235 71 249 57T309 41V0H32V41Q77 42 91 56T106 114Z" />
<glyph unicode="J" glyph-name="J" horiz-adv-x="347" d="M109 100V576Q109 619 94 634T32 650V692H315V650Q269 649 254 634T238 576V107Q238 -9 187 -63T15 -147L-9 -105Q68 -68 88 -28T109 100Z" />
<glyph unicode="K" glyph-name="K" horiz-adv-x="656" d="M106 114V576Q106 619 92 634T32 650V692H309V650Q264 649 250 634T235 576V114Q235 71 249 57T309 41V0H32V41Q77 42 91 56T106 114ZM506 566L364 399L559 90Q577 62 594 53T646 41V0H467L251 353L438
585Q456 607 456 622Q456 649 408 651V692H626V651Q593 647 570 630T506 566Z" />
<glyph unicode="L" glyph-name="L" horiz-adv-x="554" d="M235 575V59H351Q403 59 428 85T468 182H530L515 0H32V41Q77 42 91 56T106 114V576Q106 619 92 634T32 650V692H312V650Q266 649 251 634T235 575Z" />
<glyph unicode="M" glyph-name="M" horiz-adv-x="843" d="M794 692V651Q743 648 729 632T718 575L758 119Q762 73 775 57T828 40V0H562V40Q611 41 623 56T632 112L604 455Q601 499 601 555V576H596Q587 513 572 464L436 0H358L220 440Q201 502 190 577H184Q184
554 178 442L159 113Q157 70 168 56T228 40V0H15V40Q57 41 70 57T86 119L119 575Q122 616 109 632T43 651V692H271L396 296Q415 236 421 169H426Q437 243 451 295L565 692H794Z" />
<glyph unicode="N" glyph-name="N" horiz-adv-x="695" d="M526 359V576Q526 619 511 634T452 650V692H671V650Q629 649 616 634T602 576V0H509L262 393Q213 470 178 551H173Q184 463 184 384V114Q184 71 198 57T258 41V0H32V41Q77 42 91 56T106 114V576Q106 619
92 634T32 650V692H232L464 320Q508 249 531 183H536Q526 248 526 359Z" />
<glyph unicode="O" glyph-name="O" horiz-adv-x="691" d="M348 -11Q201 -11 122 84T42 343Q42 519 124 611T345 704Q492 704 570 606T649 339Q649 175 569 82T348 -11ZM345 644Q260 644 222 576T183 353Q183 193 222 119T348 44Q426 44 466 110T507 337Q507 498
469 571T345 644Z" />
<glyph unicode="P" glyph-name="P" horiz-adv-x="592" d="M235 276V116Q235 72 252 57T321 41V0H32V41Q77 42 91 56T106 114V576Q106 619 92 634T32 650V692H321Q574 692 574 487Q574 391 516 334T334 276H235ZM437 480Q437 565 409 598T303 631H235V338H315Q381
338 409 370T437 480Z" />
<glyph unicode="Q" glyph-name="Q" horiz-adv-x="693" d="M598 -134Q564 -134 528 -116T464 -76T396 -34T316 -9Q179 4 111 96T42 343Q42 519 124 611T345 704Q492 704 570 606T649 339Q649 208 595 120T446 13Q468 8 530 -14T627 -36T687 -30L660 -121Q641 -134
598 -134ZM345 644Q260 644 222 576T183 353Q183 193 222 119T348 44Q426 44 466 110T507 337Q507 498 469 571T345 644Z" />
<glyph unicode="R" glyph-name="R" horiz-adv-x="639" d="M364 320V316Q433 298 470 247Q497 211 558 99Q575 67 590 55T639 41V0H462Q392 153 351 222Q323 269 300 287T235 308V113Q235 72 250 57T307 41V0H32V41Q77 42 91 56T106 114V576Q106 619 92 634T32
650V692H318Q566 692 566 498Q566 413 510 368T364 320ZM429 498Q429 572 400 601T304 631H235V362H301Q366 362 397 392T429 498Z" />
<glyph unicode="S" glyph-name="S" horiz-adv-x="545" d="M248 -12Q126 -12 34 44V173H122Q131 103 162 72T259 41Q391 41 391 161Q391 214 365 241T274 287L204 307Q123 330 83 374T43 498Q43 594 105 649T276 704Q397 704 474 654V531H389Q380 589 353 618T263
648Q209 648 180 620T151 542Q151 495 175 471T259 429L328 410Q506 363 506 206Q506 102 439 45T248 -12Z" />
<glyph unicode="T" glyph-name="T" horiz-adv-x="582" d="M28 692H555L564 520H502Q487 589 473 610T414 631H355V114Q355 70 372 56T439 41V0H143V41Q192 42 209 56T227 114V631H168Q124 631 110 611T80 520H18L28 692Z" />
<glyph unicode="U" glyph-name="U" horiz-adv-x="687" d="M518 226V576Q518 619 503 634T441 650V692H662V650Q620 649 607 634T593 576V225Q593 -12 349 -12Q219 -12 158 44T96 219V576Q96 619 82 634T25 650V692H302V650Q255 649 240 634T225 576V231Q225 138
258 99T373 60Q448 60 483 98T518 226Z" />
<glyph unicode="V" glyph-name="V" horiz-adv-x="677" d="M393 0H282L92 576Q78 618 64 632T18 651V692H286V651Q223 650 223 611Q223 602 228 585L322 271Q339 216 361 112H367Q380 181 408 273L502 585Q507 603 507 614Q507 650 442 651V692H660V651Q625 646
610 633T580 576L393 0Z" />
<glyph unicode="W" glyph-name="W" horiz-adv-x="928" d="M583 0L487 378Q478 414 464 514H460Q448 437 434 378L344 0H220L89 573Q79 617 65 632T16 651V692H280V651Q246 649 231 640T216 609Q216 599 219 587L281 293Q295 227 304 124H310Q323 207 343 293L439
692H530L631 293Q660 181 667 125H673Q695 263 701 293L760 573Q764 592 764 604Q764 629 748 639T697 651V692H911V651Q878 646 862 629T836 569L704 0H583Z" />
<glyph unicode="X" glyph-name="X" horiz-adv-x="663" d="M519 579L392 376L551 114Q575 74 593 60T640 41V0H364V41Q418 42 418 73Q418 86 405 109L299 294H294L191 107Q180 87 180 73Q180 44 235 41V0H22V41Q52 45 72 61T118 121L258 355L119 583Q96 621 80
634T36 651V692H305V651Q250 650 250 620Q250 606 263 583L351 431H355L442 582Q454 604 454 619Q454 650 402 651V692H607V651Q578 647 561 633T519 579Z" />
<glyph unicode="Y" glyph-name="Y" horiz-adv-x="627" d="M344 353H348L451 582Q461 603 461 620Q461 650 407 651V692H613V651Q582 647 565 632T525 571L381 274V114Q381 71 397 57T461 41V0H171V41Q220 42 236 56T252 114V270L97 578Q77 618 60 632T13 651V692H277V651Q226
650 226 620Q226 603 237 580L344 353Z" />
<glyph unicode="Z" glyph-name="Z" horiz-adv-x="545" d="M517 636L164 59H329Q386 59 412 86T453 182H514L500 0H25V56L379 634H226Q178 634 154 608T114 521H51L63 692H517V636Z" />
<glyph unicode="[" glyph-name="bracketleft" horiz-adv-x="332" d="M305 -155H90V773H305V723H199V-105H305V-155Z" />
<glyph unicode="\" glyph-name="backslash" horiz-adv-x="411" d="M129 765L389 -149H306L46 765H129Z" />
<glyph unicode="]" glyph-name="bracketright" horiz-adv-x="332" d="M242 -155H27V-105H133V723H27V773H242V-155Z" />
<glyph unicode="^" glyph-name="asciicircum" horiz-adv-x="604" d="M539 310H449L299 617L154 310H65L260 708H344L539 310Z" />
<glyph unicode="_" glyph-name="underscore" horiz-adv-x="496" d="M498 -125H-2V-62H498V-125Z" />
<glyph unicode="`" glyph-name="grave" horiz-adv-x="410" d="M330 596L307 561L80 658L146 767L330 596Z" />
<glyph unicode="a" glyph-name="a" horiz-adv-x="527" d="M444 141Q444 85 456 69T512 51V12Q480 -6 425 -6Q340 -6 328 64Q312 33 277 10T190 -14Q118 -14 74 23T30 131Q30 295 283 295Q312 295 325 294V339Q325 401 308 428T245 456Q197 456 176 432T148 365H60V461Q156
515 262 515Q350 515 399 474T448 347Q448 340 446 267T444 141ZM323 242Q319 242 306 242T288 243Q221 243 189 220T157 145Q157 99 174 81T229 62Q285 62 320 116L323 242Z" />
<glyph unicode="b" glyph-name="b" horiz-adv-x="579" d="M413 251Q413 350 388 389T310 429Q244 429 200 379V110Q245 63 305 63Q360 63 386 104T413 251ZM177 63Q163 18 145 0H65Q78 35 78 117V581Q78 634 65 649T9 666V704L170 732H185Q200 702 200 633V436Q256
513 350 513Q440 513 491 449T543 257Q543 125 486 57T328 -11Q230 -11 177 63Z" />
<glyph unicode="c" glyph-name="c" horiz-adv-x="478" d="M437 473V372H346Q340 419 327 438T279 458Q164 458 164 264Q164 153 199 106T301 59Q339 59 365 69T426 104L452 70Q381 -12 270 -12Q168 -12 102 53T36 243Q36 370 105 441T279 513Q380 513 437 473Z" />
<glyph unicode="d" glyph-name="d" horiz-adv-x="591" d="M387 71Q363 34 322 12T235 -11Q147 -11 92 52T36 246Q36 373 95 443T253 513Q334 513 380 459V581Q380 634 367 649T311 666V704L479 732H502V144Q502 91 515 76T573 59V23L427 -13H412Q409 -9 405 0T395
30T387 71ZM168 258Q168 151 193 108T271 64Q327 64 380 120V395Q343 441 278 441Q223 441 196 402T168 258Z" />
<glyph unicode="e" glyph-name="e" horiz-adv-x="508" d="M313 63Q380 63 446 101L468 63Q385 -12 274 -12Q161 -12 99 57T36 253Q36 375 99 445T265 515Q371 515 424 452T477 272V237H166Q168 142 202 103T313 63ZM265 459Q219 459 196 423T167 296H353Q353 386
333 422T265 459Z" />
<glyph unicode="f" glyph-name="f" horiz-adv-x="334" d="M386 716L380 621H311Q307 677 268 677Q215 677 215 596V501H336L321 434H216V110Q216 68 231 55T300 40V0H29V40Q69 42 81 55T94 110V434H32V477L94 501V583Q94 657 141 696T269 736Q339 736 386 716Z" />
<glyph unicode="g" glyph-name="g" horiz-adv-x="537" d="M256 -194Q152 -194 92 -164T31 -84Q31 -38 82 -14L156 -12Q144 -34 144 -62Q144 -102 169 -120T257 -139Q385 -139 385 -54Q385 -14 357 0T243 17Q174 19 139 24Q104 28 87 51T69 107Q69 139 96 164T171
203Q113 216 80 255T46 348Q46 425 100 469T248 514Q288 514 340 500Q383 488 406 488Q447 488 498 528L541 447Q503 423 465 423Q433 423 397 439Q449 401 449 342Q449 300 430 269T379 222T311 198T234 190H226Q179 175 179 147Q179 124 211 123L305 120Q402
118 448 86T495 -23Q495 -106 429 -150T256 -194ZM248 243Q326 243 326 348Q326 407 307 433T247 459Q169 459 169 351T248 243Z" />
<glyph unicode="h" glyph-name="h" horiz-adv-x="603" d="M212 633V430Q250 470 288 491T381 513Q444 513 482 476T521 369V110Q521 68 532 55T583 40V0H334V40Q376 41 387 53T399 106V342Q399 424 330 424Q268 424 212 375V106Q212 66 223 54T277 40V0H24V40Q65
42 77 55T89 110V581Q89 634 76 649T20 666V704L181 732H196Q212 702 212 633Z" />
<glyph unicode="i" glyph-name="i" horiz-adv-x="302" d="M280 0H27V40Q68 42 80 55T93 110V351Q93 404 81 419T26 436V474L196 511H215V110Q215 67 226 54T280 40V0ZM224 679T224 647T202 593T147 571Q116 571 94 593T71 647Q71 679 93 701T148 723T202 701Z" />
<glyph unicode="j" glyph-name="j" horiz-adv-x="289" d="M92 14V351Q92 405 80 419T26 436V474L195 511H214V14Q214 -39 201 -78T160 -141T107 -179T41 -206L12 -164Q57 -143 74 -104T92 14ZM223 679T223 647T201 593T146 571T92 593T70 647T93 700T148 723Q179
723 201 701Z" />
<glyph unicode="k" glyph-name="k" horiz-adv-x="562" d="M24 0V40Q65 42 77 55T89 110V581Q89 634 76 649T20 666V704L181 732H196Q212 690 212 633V106Q212 66 223 54T277 40V0H24ZM404 0L220 261L353 402Q376 427 368 443T324 460V501H534V460Q506 457 484
441T425 388L334 295L476 97Q512 46 561 40V0H404Z" />
<glyph unicode="l" glyph-name="l" horiz-adv-x="304" d="M214 633V112Q214 68 226 55T282 40V0H24V40Q67 42 79 55T92 110V581Q92 634 78 649T20 666V704L184 732H199Q214 695 214 633Z" />
<glyph unicode="m" glyph-name="m" horiz-adv-x="874" d="M494 429Q571 513 657 513Q717 513 754 476T792 369V110Q792 68 803 55T854 40V0H610V40Q650 41 660 53T670 105V342Q670 386 656 405T610 424Q559 424 507 383V105Q507 66 517 54T563 40V0H324V40Q364
41 374 53T384 105V342Q384 386 370 405T324 424Q274 424 215 378V105Q215 65 225 53T275 40V0H27V40Q68 42 80 55T93 110V351Q93 404 81 419T26 436V474L173 514H188Q208 460 210 429Q248 470 285 491T372 513Q414 513 447 491T494 429Z" />
<glyph unicode="n" glyph-name="n" horiz-adv-x="606" d="M524 369V110Q524 68 535 55T586 40V0H337V40Q379 41 390 53T402 106V342Q402 424 333 424Q271 424 215 375V106Q215 66 226 54T280 40V0H27V40Q68 42 80 55T93 110V351Q93 404 81 419T26 436V474L173
514H188Q209 469 211 425Q292 513 384 513Q447 513 485 476T524 369Z" />
<glyph unicode="o" glyph-name="o" horiz-adv-x="557" d="M521 253Q521 126 453 57T277 -12Q166 -12 101 57T36 250Q36 371 103 443T280 515Q391 515 456 445T521 253ZM388 253Q388 362 361 410T277 458Q218 458 194 410T169 254Q169 142 194 93T281 43Q388 43 388 253Z" />
<glyph unicode="p" glyph-name="p" horiz-adv-x="593" d="M428 239Q428 346 404 388T325 430Q263 430 215 379V104Q254 56 314 56Q372 56 400 96T428 239ZM209 430Q234 467 275 490T361 513Q451 513 504 449T558 257Q558 129 500 61T339 -8Q259 -8 215 42V-87Q215
-129 227 -142T285 -156V-196H27V-156Q68 -154 80 -141T93 -86V351Q93 404 81 419T26 436V474L173 514H188Q207 473 209 430Z" />
<glyph unicode="q" glyph-name="q" horiz-adv-x="579" d="M168 258Q168 151 193 108T271 64Q327 64 380 120V395Q343 441 278 441Q223 441 196 402T168 258ZM401 445Q413 488 441 508H515Q503 463 503 368V-86Q503 -128 515 -141T568 -156V-196H311V-156Q356 -155
368 -142T381 -87V67Q324 -11 235 -11Q147 -11 92 52T36 246Q36 373 97 443T257 513Q348 513 401 445Z" />
<glyph unicode="r" glyph-name="r" horiz-adv-x="390" d="M212 392Q236 450 273 482T352 515Q373 515 386 510L361 382Q343 389 317 389Q258 389 237 365T215 274V110Q215 67 229 54T297 40V0H27V40Q68 42 80 55T93 110V351Q93 404 81 419T26 436V474L173 514H188Q211
465 212 392Z" />
<glyph unicode="s" glyph-name="s" horiz-adv-x="450" d="M211 -12Q110 -12 34 30V133H118Q124 83 148 63T221 42Q314 42 314 116Q314 150 296 167T236 193L167 209Q38 238 38 356Q38 432 91 473T227 514Q316 514 389 479V380H310Q297 458 217 458Q178 458 157
441T135 391Q135 363 151 347T204 323L270 308Q417 273 417 155Q417 77 363 33T211 -12Z" />
<glyph unicode="t" glyph-name="t" horiz-adv-x="341" d="M323 501L308 434H203V150Q203 92 214 72T263 51Q285 51 320 62L332 18Q277 -14 213 -14Q147 -14 114 18T81 126V434H21V477L88 502Q100 584 134 637L212 649Q203 584 203 501H323Z" />
<glyph unicode="u" glyph-name="u" horiz-adv-x="595" d="M506 511V144Q506 91 518 76T573 59V23L431 -13H416Q394 33 391 72Q319 -12 223 -12Q158 -12 121 22T83 125V351Q83 404 71 419T19 436V474L182 511H205V152Q205 109 221 90T274 71Q329 71 384 121V351Q384
404 372 419T320 436V474L483 511H506Z" />
<glyph unicode="v" glyph-name="v" horiz-adv-x="530" d="M314 -5H220L67 395Q53 432 40 444T-1 460V501H248V460Q188 459 188 429Q188 419 194 401L268 192Q284 148 289 110H294Q301 148 316 192L387 401Q393 418 393 428Q393 459 331 460V501H531V460Q500 456
487 444T460 395L314 -5Z" />
<glyph unicode="w" glyph-name="w" horiz-adv-x="783" d="M364 242L293 -5H192L69 391Q57 431 44 443T1 460V501H243V460Q188 458 188 426Q188 417 192 401L246 210Q259 163 265 118H270Q278 164 290 209L367 501H454L548 210Q563 162 569 118H574Q580 155 592
207L640 402Q643 414 643 426Q643 459 587 460V501H782V460Q749 456 736 444T712 393L599 -5H500L420 242Q413 263 407 287T397 332T393 355H388Q381 304 364 242Z" />
<glyph unicode="x" glyph-name="x" horiz-adv-x="542" d="M243 207L168 93Q158 77 158 66Q158 41 204 40V0H14V40Q44 43 58 54T96 100L207 257L106 400Q80 437 67 446T22 460V501H267V460Q228 459 228 440Q228 428 241 409L299 318H303L360 409Q371 426 371 438Q371
459 329 460V501H515V460Q485 456 469 445T430 399L339 267L450 104Q477 65 490 54T535 40V0H291V40Q334 42 334 62Q334 72 322 92L247 207H243Z" />
<glyph unicode="y" glyph-name="y" horiz-adv-x="530" d="M110 -210L71 -126Q144 -111 185 -85T250 5L202 0Q182 79 146 179L68 393Q55 430 42 443T-1 460V501H248V460Q213 459 200 452T186 431Q186 424 193 406L263 198Q280 150 290 91H294Q299 123 319 185L388
406Q393 420 394 428Q395 445 382 451T331 460V501H531V460Q500 456 487 444T460 395L317 -6Q283 -99 236 -147T110 -210Z" />
<glyph unicode="z" glyph-name="z" horiz-adv-x="479" d="M457 153L435 0H41V55L310 444H205Q154 444 137 427T111 352H59V501H447V445L178 56H272Q338 56 360 72T404 153H457Z" />
<glyph unicode="{" glyph-name="braceleft" horiz-adv-x="372" d="M235 642V436Q235 373 209 345T150 311V307Q182 302 208 274T235 183V-24Q235 -109 304 -109H347V-155H259Q192 -155 162 -123T131 -25V197Q131 246 105 267T25 288V330Q79 330 105 351T131 421V643Q131
707 164 740T259 773H347V727H304Q235 727 235 642Z" />
<glyph unicode="|" glyph-name="bar" horiz-adv-x="257" d="M167 -149H90V765H167V-149Z" />
<glyph unicode="}" glyph-name="braceright" horiz-adv-x="372" d="M137 436V642Q137 727 68 727H25V773H113Q180 773 210 741T241 643V421Q241 372 267 351T347 330V288Q293 288 267 267T241 197V-25Q241 -89 208 -122T113 -155H25V-110H68Q137 -110 137 -25V183Q137
245 163 273T222 307V311Q190 316 164 344T137 436Z" />
<glyph unicode="~" glyph-name="asciitilde" horiz-adv-x="567" d="M370 332Q438 332 467 389L505 370Q489 308 455 272T371 235Q333 235 272 255T188 276Q128 276 96 216L61 234Q73 299 105 336T188 374Q225 374 284 353T370 332Z" />
</font>
</defs>
</svg>
